+ 01977444.com
|- Recent Posts


Mastercard 10% Off

Recent Posts

Pages: 1 2 3 4 ... 10
1
Naagmani (1991) 360p AMZN WEB-DL DDP 2.0 ESub - DTOne







 :info:
Format                                  : Matroska
Format version                          : Version 4 / Version 2
File size                                : 1.17 GiB
Duration                                : 2 h 25 min
Overall bit rate                        : 1 146 kb/s


Video
ID                                      : 1
Format                                  : AVC
Format/Info                              : Advanced Video Codec
Format profile                          : [email protected]
Format settings                          : CABAC / 5 Ref Frames
Format settings, CABAC                  : Yes
Format settings, RefFrames              : 5 frames
Codec ID                                : V_MPEG4/ISO/AVC
Duration                                : 2 h 25 min
Bit rate                                : 920 kb/s
Width                                    : 720 pixels
Height                                  : 304 pixels
Display aspect ratio                    : 2.35:1
Original display aspect ratio            : 2.35:1
Frame rate mode                          : Constant
Frame rate                              : 25.000 FPS
Color space                              : YUV
Chroma subsampling                      : 4:2:0
Bit depth                                : 8 bits
Scan type                                : Progressive
Bits/(Pixel*Frame)                      : 0.168
Stream size                              : 959 MiB (80%)
Default                                  : Yes
Forced                                  : No
Color range                              : Limited
Color primaries                          : BT.709
Transfer characteristics                : BT.709
Matrix coefficients                      : BT.709


Audio
ID                                      : 2
Format                                  : E-AC-3
Format/Info                              : Enhanced Audio Coding 3
Codec ID                                : A_EAC3
Duration                                : 2 h 25 min
Bit rate mode                            : Constant
Bit rate                                : 224 kb/s
Channel(s)                              : 2 channels
Channel positions                        : Front: L R
Sampling rate                            : 48.0 kHz
Frame rate                              : 187.500 FPS (256 SPF)
Compression mode                        : Lossy
Stream size                              : 234 MiB (20%)
Title                                    : Hindi
Language                                : Hindi
Service kind                            : Complete Main
Default                                  : No
Forced                                  : No


Text
ID                                      : 3
Format                                  : UTF-8
Codec ID                                : S_TEXT/UTF8
Codec ID/Info                            : UTF-8 Plain Text
Duration                                : 2 h 21 min
Bit rate                                : 37 b/s
Count of elements                        : 1006
Stream size                              : 38.7 KiB (0%)
Title                                    : English [Full]
Language                                : English
Default                                  : Yes
Forced                                  : No



 :ss:





 :download:


2
The Matrix Reloaded after 01:12:46 runtime audio out of sync plz reupload file new source

The Matrix Reloaded
Set Delay +1032
3
SHREEMAAN AASHIQUE (1993) 480P EROS WEBDL AAC AVC - DTONE







 :plot:
Source---------------------------> EroS @ DTOne ka warehouse
Ripper---------------------------> HiGh [email protected]
Frame Size-----------------------> 640x480
Subtitles------------------------> N/A
Frame Rate-----------------------> 25 fps
Video Type-----------------------> MP4
Audio----------------------------> AAC 2.0 Hindi 
Runtimes-------------------------> 02 hrs 32 min
File Size -------------------------> 1.4 GB



 :ss:






 :download:
4
Can you upload Game of thrones Complete S2 224Kbps Hindi audio of LOKiHD ZTRG?
5
Dear Update link .....................Thanks


@BareillyKing ,   Link Updated !!    :congo:
6
Hindi Mp3 Songs / Do Gulab [FLAC - 1983] - DTOne
« Last post by Special26 on 53 minutes ago »
Do Gulab [FLAC - 1983] - DTOne




 :plot:
Source : DTOne
Album : Do Gulab (1983)
Playing Time : 33:55












 :tracklist:

  1. Asha Bhosle - Aah-Ha Oonh-Hun                          [05:15]
  2. Kishore Kumar;Asha Bhosle - Come Near                  [05:01]
  3. Kishore Kumar;Asha Bhosle - Jab Do Dil Takrayenge      [07:19]
  4. Kishore Kumar;Asha Bhosle - Mere Liye Tu Bani          [06:42]
  5. S. P. Balasubrahmanyam - Premi Juda Na Hona, Pt. 1      [03:14]
  6. S. P. Balasubrahmanyam - Premi Juda Na Hona, Pt. 2      [06:22]



All Credit Goes To {swarint} !!!     :)
 :download:

7
Hunterrr (2015) 1080p AMZN WeBDL H264 DDP 5.1 - DTOne







 :plot:
Source---------------------------> Amazon @ DTOne ka warehouse
Ripper---------------------------> HiGh [email protected]
Frame Size-----------------------> 1920x1080
Subtitles------------------------> Eng
Frame Rate-----------------------> 25 fps
Video Type-----------------------> MKv
Audio----------------------------> EAC3 256KBPS 6.0 Hindi 
Runtimes-------------------------> 02 hrs 11 min
File Size -------------------------> 9.3 GB



 :ss:






 :download:
8
Reply #9241

@rishabh418b  - "Request Hindi Audio for Kung Fu Hustle (2004) 448Kbps DD 5.1
"


Here's your request "@rishabh418b" - "Kung Fu Hustle (2004) Hindi 5.1 @ 448 Kbps"

RUN TIME - 1 HOURS 39 MINS 35 SEC

DOWNLOAD LINKS -


PLZ ADD REPS IF U LIKE IT ~ EmKay
:thank: :rep:
9
Hum Saath Saath Hain (1999) Hindi 720p WEB-HD x264 AAC - Sun George




 :info:
Format : Matroska
Format version : Version 4 / Version 2
File size : 1.65 GiB
Duration : 2 h 48 min
Overall bit rate : 1 400 kb/s


Video
ID : 1
Format : AVC
Format/Info : Advanced Video Codec
Format profile : [email protected]
Format settings : CABAC / 5 Ref Frames
Format settings, CABAC : Yes
Format settings, RefFrames : 5 frames
Codec ID : V_MPEG4/ISO/AVC
Duration : 2 h 48 min
Bit rate : 1 300 kb/s
Width : 1 280 pixels
Height : 544 pixels
Display aspect ratio : 2.35:1
Frame rate mode : Constant
Frame rate : 25.000 FPS
Color space : YUV
Chroma subsampling : 4:2:0
Bit depth : 8 bits
Scan type : Progressive
Bits/(Pixel*Frame) : 0.075
Stream size : 1.53 GiB (93%)


Audio
ID : 2
Format : AAC
Format/Info : Advanced Audio Codec
Format profile : LC
Codec ID : A_AAC-2
Duration : 2 h 48 min
Bit rate : 96.0 kb/s
Channel(s) : 2 channels
Channel positions : Front: L R
Sampling rate : 48.0 kHz
Frame rate : 46.875 FPS (1024 SPF)
Compression mode : Lossy
Stream size : 118 MiB (7%)
Default : Yes
Forced : No



 :ss:






 :download:


Pages: 1 2 3 4 ... 10



Back to top
Amor gitano | Abismo do Medo DUBLADO E LEGENDADO ONLINE | Qui garde le chien ? FRENCH DVDRIP 2018